Home| All Programs| Today added Progs| Download Status| Customers opinion| Helpdesk| Shopping cart

Program Search:

Shopping Cart:




*Note: Minimum order cost: €20
Maximum Total Price: €1500
We Recommend:
The Router Workshop (Episode Guide 1000-1400) €25 buy download

× The Router Workshop (Episode Guide 1000-1400) Close
The Router Workshop (Episode Guide 1000-1400)5xDVDRip | English | DIVX | 656 x 480 | DX50 ~1101 Kbps | 29.970 fps
MP3 | 128 Kbps | 48.0 KHz | 2 channel | ~30 hours | 12.74 GBGenre: eLearning Video / Woodworking
Planning a remodeling project or wondering why your doors do not open properly? You will want to be with us for this episode of the "Router Workshop", as router experts Bob and Rick show you some of the tricks of the trade in the construction and renovation fields! Today we're "hanging a door"! Rick will show you how to layout and make your own hinge mortising jig. Bob mortises the door while Rick uses the same jig to mortise the jamb. Bob shows you a set of ‘door jacks’ that are amazingly simple to build. Discover the right way to "hanging a door" on the "Router Workshop"!Series 1000:
1002 - The Secretary Pt1.divx
1003 - The Secretary Pt2.divx
1004 - The Secretary Pt3.divx
1005 - The Secretary Pt4.divx
1006 - Wedge Stool.divx
1007 - Pediment Mirror Pt1.divx
1008 - Pediment Mirror Pt2.divx
1009 - The Stilt Cabinet.divx
1010 - Bedside Case.divx
1011 - Corner Hutch Pt1.divx
1012 - Corner Hutch Pt2.divx
1013 - Mission Table.divx

Series 1100:
1101 - Puzzle Planter.divx
1102 - Swivel Stool.divx
1103 - Kitchen Console Pt1.divx
1104 - Kitchen Console Pt2.divx
1105 - Hall Tree.divx
1106 - Chair-side Table Pt1.divx
1107 - Chair-side Table Pt2.divx
1108 - Tool Storage.divx
1109 - Swan Neck Stand.divx
1110 - Shoe Rack.divx
1111 - Games Table Pt1.divx
1112 - Games Table Pt2.divx
1113 - Saw Horse.divx

Series 1200:
1201 - Child's Desk.divx
1202 - Bedside Table Pt1.divx
1203 - Bedside Table Pt2.divx
1204 - Hexagon Stool.divx
1205 - Executive Desk Pt1.divx
1206 - Executive Desk Pt2.divx
1207 - Executive Desk Pt3.divx
1208 - Bent Wood Coffee Table.divx
1209 - Base Table (Queen Anne).divx
1210 - Chiffoner Pt1.divx
1211 - Chiffoner Pt2.divx
1212 - Blanket Box.divx
1213 - Angle Tray.divx

Series 1300:
1301 - Picnic Caddy.divx
1302 - Plate Hutch and Server Pt1.divx
1303 - Plate Hutch and Server Pt2.divx
1304 - Plate Hutch and Server Pt3.divx
1305 - Cherry Footstool.divx
1306 - Bob's Table.divx
1307 - Round Half Leaf Table Pt1.divx
1308 - Round Half Leaf Table Pt2.divx
1309 - Smith Shelf.divx
1310 - Tile Front Chest.divx
1311 - Sofa End Table Pt1.divx
1312 - Sofa End Table Pt2.divx
1313 - Open Stringer Stairs.divx

Series 1400:
1401 - Boxes inside Boxes.divx
1402 - Dining Room Server Pt1.divx
1403 - Dining Room Server Pt2.divx
1404 - Ash Door.divx
1405 - Fireplace Screen.divx
1406 - Pole Lamp Pt1.divx
1407 - Pole Lamp pt2.divx
1408 - Suitcase Stand.divx
1409 - Travel Chair Pt1.divx
1410 - Travel Chair Pt2.divx
1411 - Window Shutters.divx
1412 - Angle Leg Table.divx
1413 - Counter Topping.divx

also You can find my other helpful Woodworking-posts
(if old file-links don't show activity, try copy-paste them to the address bar)

The Versatile Router

WoodWorking - Frame and Panel Construction

Unlocking the Secrets of Traditional Design with George Walker

Workshop of Charles Neil - Making Large Panels

Building Drawers with Andy Rae

Popular Woodworking Magazine -...dworkers Part I & II Video

Woodsmith Seminars Podcast

The Pocket Hole Solution to Trim Carpentry with Gary Striegler DVD5

Mastering_Your_Bandsaw

Measuring Furniture for Reprod...ine Woodworking Video Workshop

Basic Router Jigs with Ron Fox

Legacy Woodworking Machinery Vol.2

Fine Woodworking - 2008 Annual Collection

Small Shop Tips & Techniques with Jim Cummins

Basic Box Making with Doug Stowe

Woodworkers Guild of America - Easy projects with native materials

Woodworkers Guild of America -...r Your Shop And Home, Volume 7

Router Joinery with Gary Rogowski - Fine Woodworking DVD Workshop

Steve Latta - Fundamentals of Inlay: Making Ornamental Bandings

Framing Walls with Larry Haun - Fine Homebuilding DVD Workshop

Framing Roofs with Larry Haun

Framing Floors & Stairs (with Larry Haun)

Installing Trim with Craig Savage - Fine Homebuilding DVD Workshop

Installing Kitchen Cabinets and Countertops: with Tom Law

Building Decks with Scott Schutter - Fine Homebuilding DVD Workshop

Chairmaking Techniques with Je... Fine Woodworking DVD Workshop

Cabinetmaking Made Easy with Marc Sommerfeld

Chip Carving with Wayne Barton

Dovetail a Drawer with Frank Klausz

Biscuit Joinery with Frank Klausz

Hand Tools - Tuning and Using Chisels, Planes and Saws

The Router Workshop (Episode Guide 500-700)

MediaInfo: General
Complete name : 1003 - The Secretary Pt2.divx
Format : AVI
Format/Info : Audio Video Interleave
File size : 210 MiB
Duration : 23mn 43s
Overall bit rate : 1 240 Kbps

Video
ID : 0
Format : MPEG-4 Visual
Format settings, BVOP : 1
Format settings, QPel : No
Format settings, GMC : No warppoints
Format settings, Matrix : Default (H.263)
Muxing mode : Packed bitstream
Codec ID : DX50
Codec ID/Hint : DivX 5
Duration : 23mn 43s
Bit rate : 1 101 Kbps
Width : 656 pixels
Height : 480 pixels
Display aspect ratio : 4:3
Frame rate : 29.970 fps
Color space : YUV
Chroma subsampling : 4:2:0
Bit depth : 8 bits
Scan type : Progressive
Compression mode : Lossy
Bits/(Pixel*Frame) : 0.117
Stream size : 187 MiB (89%)
Title : Video
Writing library : DivX 6.8.0 Converter 6.6

Audio
ID : 1
Format : MPEG Audio
Format version : Version 1
Format profile : Layer 3
Mode : Dual mono
Codec ID : 55
Codec ID/Hint : MP3
Duration : 23mn 43s
Bit rate mode : Constant
Bit rate : 128 Kbps
Channel(s) : 2 channels
Sampling rate : 48.0 KHz
Compression mode : Lossy
Stream size : 21.7 MiB (10%)
Alignment : Split accross interleaves
Interleave, duration : 33 ms (1.00 video frame)
Interleave, preload duration : 500 ms
Title : Audio Screenshots
× The Router Workshop (Episode Guide 1000-1400) Close
× The Router Workshop (Episode Guide 1000-1400) Close
× The Router Workshop (Episode Guide 1000-1400) Close
× The Router Workshop (Episode Guide 1000-1400) Close
× The Router Workshop (Episode Guide 1000-1400) Close
Exclusive eLearning Videos ParRus-blog ← add to bookmarks
× The Router Workshop (Episode Guide 1000-1400) Close



Download File Size:12.61 GB


The Router Workshop (Episode Guide 1000-1400)
€25
Customers who bought this program also bought:
  • Brainwave-Sync - Into the Deep (Delta Frequency) €1
  • Lets Grow Mushrooms €10
  • VueMinder Ultimate 2020.02 Multilingual €10
  • Sexy Amateur Sweeties Adult Photo Magazine - Full Year 2019 Collection €2

  • Home| All Programs| Today added Progs| Download Status| Customers opinion| Helpdesk| Shopping cart      
    Copyright 2006-2019 ©   LPStore   All Rights Reserved





    Adobe Photoshop CC 2019 20.0.5 x64 Multilingual Portable with plugins and Camera Raw profiles €110

                 

    Adobe Illustrator CC 2019 23.0.0.530 Multilingual x64 (1 dvd) €75






    9327 Fantasy & Sci-Fi eBooks Collection 9327 PDF Books eBook €60


    Cambridge University History Collection PDF eBooks €100

                       





    Autodesk AutoCAD 2020 €100

                 

    SolidWorks 2019 SP3.0 Premium Multilingual €110